<?xml version="1.0" standalone="no"?>
<!DOCTYPE svg PUBLIC "-//W3C//DTD SVG 1.1//EN" "http://www.w3.org/Graphics/SVG/1.1/DTD/svg11.dtd" >
<svg xmlns="http://www.w3.org/2000/svg">
<metadata>Generated by IcoMoon</metadata>
<defs>
<font id="icomoon" horiz-adv-x="1024">
<font-face units-per-em="1024" ascent="960" descent="-64" />
<missing-glyph horiz-adv-x="1024" />
<glyph unicode="&#x20;" horiz-adv-x="512" d="" />
<glyph unicode="&#xe900;" glyph-name="node" d="M144-64.001c-70.912 0-128 57.088-128 128v260.565h121.941c46.592 0 84.053 37.035 83.797 83.627v0.896c34.645-4.053 55.979-15.019 71.424-29.141 17.749-16.299 29.44-38.827 43.349-63.957 13.867-25.173 30.293-53.077 60.075-73.515 24.533-16.853 57.813-27.477 101.717-29.269v-19.2c0-46.592 37.547-84.309 84.139-84.309h336.768c46.549 0 84.224 37.717 84.224 84.309v82.859c0 46.549-37.675 86.571-84.224 86.571h-336.768c-46.592 0-84.139-40.021-84.139-86.613v-19.328c-36.395 1.579-60.075 10.069-76.715 21.504-20.48 14.080-33.024 34.219-46.336 58.368-13.312 24.107-26.88 52.053-52.139 75.221l-3.285 2.944c131.029 17.707 190.507 66.347 241.109 110.635 59.307 51.84 105.643 97.067 268.8 97.621v-19.627c0-46.592 38.144-83.029 84.736-83.029h125.525v-457.131c0-70.912-57.088-128-128-128zM582.443 166.826c-15.744 0-29.312 11.435-29.312 27.179v82.859c0 15.701 13.568 27.136 29.312 27.136h336.725c0.272 0.010 0.592 0.016 0.913 0.016 14.468 0 26.197-11.729 26.197-26.197 0-0.336-0.006-0.67-0.019-1.003l0.001 0.048v-82.859c0.011-0.285 0.017-0.619 0.017-0.955 0-14.468-11.729-26.197-26.197-26.197-0.321 0-0.641 0.006-0.959 0.017l0.046-0.001zM16 381.78v139.392h121.941c15.981-0.426 28.791-13.415 28.928-29.427v-82.872c0-15.701-13.227-27.093-28.928-27.093zM221.696 453.034v38.699c0.001 0.127 0.001 0.277 0.001 0.427 0 46.274-37.488 83.792-83.751 83.84h-121.946v256c0 70.912 57.088 128 128 128h768c70.912 0 128-57.088 128-128v-59.435h-125.525c-46.592 0-84.736-38.955-84.736-85.547v-18.987c-172.629-1.365-238.848-56.875-297.941-108.544-61.312-53.632-117.376-103.723-310.101-106.453zM914.475 575.999c-0.041 0-0.089 0-0.136 0-15.175 0-27.477 12.302-27.477 27.477 0 0.24 0.003 0.48 0.009 0.718l-0.001-0.035v82.859c0 15.701 11.861 26.112 27.605 26.112h125.525v-137.131z" />
<glyph unicode="&#xe901;" glyph-name="warning" d="M512 883.25c-23.444 0-46.515-5.964-67-17.375s-37.735-27.995-50-48c0.092 0.207 0.051 0.125 0.009 0.043l-0.134-0.293-363.125-599.875c-0.093-0.111-0.256-0.314-0.419-0.519l-0.081-0.106c-12.022-20.592-18.433-44.025-18.5-67.875s6.225-47.344 18.125-68c11.905-20.672 29.046-37.769 49.625-49.75s43.915-18.495 67.75-18.75c0.093-0.001 0.203-0.001 0.313-0.001s0.22 0 0.329 0.001h726.233c0.093-0.001 0.203-0.001 0.313-0.001s0.22 0 0.329 0.001h-0.017c23.833 0.255 47.171 6.772 67.75 18.75 20.571 11.98 37.718 29.079 49.625 49.75 11.893 20.654 18.187 44.162 18.125 68-0.072 23.841-6.477 47.282-18.5 67.875-0.244 0.311-0.407 0.514-0.572 0.716l0.072-0.091-363.125 599.875c-0.176 0.375-0.217 0.457-0.259 0.539l0.134-0.289c-12.265 20.005-29.514 36.588-50 48s-43.556 17.375-67 17.375zM512 780.75c6.035 0 11.925-1.478 17.125-4.375 5.202-2.898 9.476-7.068 12.5-12l362.625-598.875c2.953-5.058 4.482-10.834 4.5-16.625-0.006-5.752-1.466-11.449-4.375-16.5-2.928-5.083-7.142-9.327-12.375-12.375-5.239-3.049-11.269-4.685-17.375-4.75h-725.25c-6.112 0.065-12.144 1.705-17.375 4.75-5.233 3.046-9.448 7.293-12.375 12.375-2.93 5.085-4.391 10.718-4.375 16.5 0 0.019 0 0.041 0 0.062s0 0.044 0 0.066v-0.003c0.016 5.782 1.546 11.441 4.5 16.5l362.625 598.875c3.024 4.932 7.298 9.102 12.5 12 5.2 2.897 11.090 4.375 17.125 4.375zM512 623.5c-0.015 0-0.032 0-0.050 0-28.277 0-51.2-22.923-51.2-51.2 0-0.018 0-0.035 0-0.053v0.003-170.625c0-0.015 0-0.032 0-0.050 0-28.277 22.923-51.2 51.2-51.2 0.018 0 0.035 0 0.053 0h-0.003c0.015 0 0.032 0 0.050 0 28.277 0 51.2 22.923 51.2 51.2 0 0.018 0 0.035 0 0.053v-0.003 170.625c0 0.015 0 0.032 0 0.050 0 28.277-22.923 51.2-51.2 51.2-0.018 0-0.035 0-0.053 0h0.003zM512 285.875c-0.015 0-0.032 0-0.050 0-28.277 0-51.2-22.923-51.2-51.2 0-0.018 0-0.035 0-0.053v0.003c0.043-28.245 22.949-51.125 51.2-51.125 0.018 0 0.035 0 0.053 0h0.372c0.015 0 0.032 0 0.050 0 28.251 0 51.157 22.88 51.2 51.121v0.004c0 0.015 0 0.032 0 0.050 0 28.277-22.923 51.2-51.2 51.2-0.018 0-0.035 0-0.053 0h-0.372z" />
<glyph unicode="&#xe902;" glyph-name="sort" d="M252.875 627.125c-12.997-0.798-24.566-6.33-33.126-14.876l0.001 0.001c-9.293-9.27-15.042-22.089-15.042-36.25s5.749-26.98 15.041-36.249l256.001-256.001c9.271-9.292 22.089-15.040 36.25-15.040s26.979 5.748 36.249 15.039l256.001 256.001c9.293 9.27 15.042 22.089 15.042 36.25s-5.749 26.98-15.041 36.249l-0.001 0.001c-9.27 9.293-22.089 15.042-36.25 15.042s-26.98-5.749-36.249-15.041l-219.751-219.751-219.75 219.75c-9.263 9.253-22.055 14.975-36.182 14.975-1.123 0-2.238-0.036-3.343-0.107l0.151 0.008z" />
<glyph unicode="&#xe903;" glyph-name="arrow-left" d="M636.875 755.125c-12.997-0.798-24.566-6.33-33.126-14.876l-255.999-255.999c-9.292-9.271-15.040-22.089-15.040-36.25s5.748-26.979 15.039-36.249l256.001-256.001c9.27-9.293 22.089-15.042 36.25-15.042s26.98 5.749 36.249 15.041l0.001 0.001c9.293 9.27 15.042 22.089 15.042 36.25s-5.749 26.98-15.041 36.249l-219.751 219.751 219.75 219.75c9.293 9.27 15.042 22.089 15.042 36.25s-5.749 26.98-15.041 36.249l-0.001 0.001c-9.263 9.253-22.055 14.975-36.182 14.975-1.123 0-2.238-0.036-3.343-0.107l0.151 0.008z" />
<glyph unicode="&#xe904;" glyph-name="arrow-up" d="M508.875 627.125c-12.997-0.799-24.566-6.33-33.126-14.876l-255.999-255.999c-9.293-9.27-15.042-22.089-15.042-36.25s5.749-26.98 15.041-36.249l0.001-0.001c9.27-9.293 22.089-15.042 36.25-15.042s26.98 5.749 36.249 15.041l219.751 219.751 219.75-219.75c9.27-9.293 22.089-15.042 36.25-15.042s26.98 5.749 36.249 15.041l0.001 0.001c9.293 9.27 15.042 22.089 15.042 36.25s-5.749 26.98-15.041 36.249l-256.001 256.001c-9.264 9.252-22.056 14.975-36.184 14.975-1.123 0-2.237-0.036-3.341-0.107l0.151 0.008z" />
<glyph unicode="&#xe905;" glyph-name="calendar" d="M213.375 840.5c-74.799 0-136.625-61.701-136.625-136.5v-597.375c0-74.799 61.829-136.5 136.625-136.5h597.25c74.794 0 136.625 61.698 136.625 136.5v597.375c0 74.801-61.828 136.5-136.625 136.5h-597.25zM213.375 738.125h597.25c19.45 0 34.125-14.669 34.125-34.125v-597.375c0-19.458-14.673-34.125-34.125-34.125h-597.25c-19.46 0-34.125 14.665-34.125 34.125v597.375c0 19.458 14.667 34.125 34.125 34.125zM682.625 925.875c-28.245-0.043-51.125-22.949-51.125-51.2 0-0.018 0-0.035 0-0.053v0.003-170.625c0-0.015 0-0.032 0-0.050 0-28.251 22.88-51.157 51.121-51.2h0.004c0.015 0 0.032 0 0.050 0 28.277 0 51.2 22.923 51.2 51.2 0 0.018 0 0.035 0 0.053v-0.003 170.625c0 0.015 0 0.032 0 0.050 0 28.277-22.923 51.2-51.2 51.2-0.018 0-0.035 0-0.053 0h0.003zM341.375 925.875c-0.015 0-0.032 0-0.050 0-28.277 0-51.2-22.923-51.2-51.2 0-0.018 0-0.035 0-0.053v0.003-170.625c0-0.015 0-0.032 0-0.050 0-28.277 22.923-51.2 51.2-51.2 0.018 0 0.035 0 0.053 0h-0.003c28.245 0.043 51.125 22.949 51.125 51.2 0 0.018 0 0.035 0 0.053v-0.003 170.625c0 0.015 0 0.032 0 0.050 0 28.251-22.88 51.157-51.121 51.2h-0.004zM128 584.5c-0.015 0-0.032 0-0.050 0-28.251 0-51.157-22.88-51.2-51.121v-0.004c0-0.015 0-0.032 0-0.050 0-28.277 22.923-51.2 51.2-51.2 0.018 0 0.035 0 0.053 0h767.997c0.015 0 0.032 0 0.050 0 28.277 0 51.2 22.923 51.2 51.2 0 0.018 0 0.035 0 0.053v-0.003c-0.043 28.245-22.949 51.125-51.2 51.125-0.018 0-0.035 0-0.053 0h-767.997z" />
<glyph unicode="&#xe906;" glyph-name="ok" d="M855 712.5c-0.489 0.017-1.064 0.026-1.641 0.026-14.153 0-26.966-5.743-36.233-15.026l-433.126-433.001-177.125 177c-9.264 9.256-22.057 14.98-36.188 14.98s-26.924-5.724-36.188-14.98v0c-9.256-9.264-14.98-22.057-14.98-36.188s5.724-26.924 14.98-36.188l213.25-213.375c9.271-9.292 22.089-15.040 36.25-15.040s26.979 5.748 36.249 15.039l469.251 469.376c9.256 9.264 14.98 22.057 14.98 36.188s-5.724 26.924-14.98 36.188v0c-8.869 8.885-20.983 14.527-34.412 14.998l-0.088 0.002z" />
<glyph unicode="&#xe907;" glyph-name="close" d="M764.875 755.125c-12.997-0.798-24.566-6.33-33.126-14.876l-511.999-511.999c-9.293-9.27-15.042-22.089-15.042-36.25s5.749-26.98 15.041-36.249l0.001-0.001c9.27-9.293 22.089-15.042 36.25-15.042s26.98 5.749 36.249 15.041l512.001 512.001c9.293 9.27 15.042 22.089 15.042 36.25s-5.749 26.98-15.041 36.249l-0.001 0.001c-9.263 9.253-22.055 14.975-36.182 14.975-1.123 0-2.238-0.036-3.343-0.107l0.151 0.008zM252.875 755.125c-12.997-0.798-24.566-6.33-33.126-14.876l0.001 0.001c-9.293-9.27-15.042-22.089-15.042-36.25s5.749-26.98 15.041-36.249l512.001-512.001c9.27-9.293 22.089-15.042 36.25-15.042s26.98 5.749 36.249 15.041l0.001 0.001c9.293 9.27 15.042 22.089 15.042 36.25s-5.749 26.98-15.041 36.249l-512.001 512.001c-9.263 9.253-22.055 14.975-36.182 14.975-1.123 0-2.238-0.036-3.343-0.107l0.151 0.008z" />
<glyph unicode="&#xe908;" glyph-name="copy" d="M469.375 627.25c-74.799 0-136.625-61.826-136.625-136.625v-384c0-74.799 61.824-136.5 136.625-136.5h384c74.802 0 136.5 61.698 136.5 136.5v384c0 74.801-61.701 136.625-136.5 136.625h-384zM469.375 524.75h384c19.46 0 34.125-14.669 34.125-34.125v-384c0-19.458-14.667-34.125-34.125-34.125h-384c-19.456 0-34.125 14.665-34.125 34.125v384c0 19.458 14.667 34.125 34.125 34.125zM170.625 925.875c-36.192 0-70.909-14.409-96.5-40-25.592-25.591-40-60.309-40-96.5v-384c0-36.191 14.408-71.034 40-96.625s60.308-40 96.5-40h42.75c28.245 0.043 51.125 22.949 51.125 51.2 0 0.018 0 0.035 0 0.053v-0.003c0 0.015 0 0.032 0 0.050 0 28.251-22.88 51.157-51.121 51.2h-42.754c-9.072 0-17.71 3.585-24.125 10-6.414 6.414-10 15.052-10 24.125v384c0 9.074 3.586 17.711 10 24.125 6.415 6.415 15.053 10 24.125 10h384c9.072 0 17.835-3.585 24.25-10s10-15.055 10-24.125v-42.75c0.043-28.218 22.907-51.082 51.121-51.125h0.004c0.015 0 0.032 0 0.050 0 28.251 0 51.157 22.88 51.2 51.121v42.754c0 36.195-14.41 70.911-40 96.5-25.591 25.591-60.433 40-96.625 40h-384z" />
<glyph unicode="&#xe909;" glyph-name="delete" d="M128 712.5c-0.015 0-0.032 0-0.050 0-28.251 0-51.157-22.88-51.2-51.121v-0.004c0-0.015 0-0.032 0-0.050 0-28.277 22.923-51.2 51.2-51.2 0.018 0 0.035 0 0.053 0h767.997c0.015 0 0.032 0 0.050 0 28.277 0 51.2 22.923 51.2 51.2 0 0.018 0 0.035 0 0.053v-0.003c-0.043 28.245-22.949 51.125-51.2 51.125-0.018 0-0.035 0-0.053 0h-767.997zM426.625 925.875c-36.192 0-70.909-14.409-96.5-40s-40-60.309-40-96.5v-34.125h-76.75c-0.013 0-0.029 0-0.045 0-28.28 0-51.205-22.925-51.205-51.205 0-0.016 0-0.032 0-0.047v0.003-597.375c0-36.19 14.415-70.91 40-96.5 25.59-25.584 60.306-40 96.5-40h426.75c36.193 0 70.908 14.408 96.5 40 25.594 25.594 40 60.317 40 96.5v597.375c0 0.013 0 0.029 0 0.045 0 28.28-22.925 51.205-51.205 51.205-0.016 0-0.032 0-0.047 0h-76.747v34.125c0 36.184-14.399 70.905-40 96.5-25.592 25.597-60.308 40-96.5 40h-170.75zM426.625 823.5h170.75c9.072 0 17.717-3.591 24.125-10 6.412-6.41 10-15.044 10-24.125v-34.125h-239v34.125c0 9.074 3.586 17.711 10 24.125 6.415 6.415 15.053 10 24.125 10zM264.5 652.75h495v-546.125c0-9.078-3.581-17.706-10-24.125-6.408-6.408-15.057-10-24.125-10h-426.75c-9.070 0-17.708 3.585-24.125 10-6.421 6.422-10 15.054-10 24.125v546.125zM426.625 541.875c-28.245-0.043-51.125-22.949-51.125-51.2 0-0.018 0-0.035 0-0.053v0.003-256c0.043-28.218 22.907-51.082 51.121-51.125h0.004c0.015 0 0.032 0 0.050 0 28.251 0 51.157 22.88 51.2 51.121v256.004c0 0.015 0 0.032 0 0.050 0 28.277-22.923 51.2-51.2 51.2-0.018 0-0.035 0-0.053 0h0.003zM597.375 541.875c-0.015 0-0.032 0-0.050 0-28.277 0-51.2-22.923-51.2-51.2 0-0.018 0-0.035 0-0.053v0.003-256c0.043-28.245 22.949-51.125 51.2-51.125 0.018 0 0.035 0 0.053 0h-0.003c28.218 0.043 51.082 22.907 51.125 51.121v256.004c0 0.015 0 0.032 0 0.050 0 28.251-22.88 51.157-51.121 51.2h-0.004z" />
<glyph unicode="&#xe90a;" glyph-name="download" d="M128 392.5c-0.015 0-0.032 0-0.050 0-28.251 0-51.157-22.88-51.2-51.121v-163.629c0-35.248 14.073-69.076 39-94 24.926-24.933 58.754-39 94-39h572.5c35.246 0 69.075 14.064 94 39 24.936 24.925 39 58.754 39 94v163.625c-0.043 28.245-22.949 51.125-51.2 51.125-0.018 0-0.035 0-0.053 0h0.003c-0.015 0-0.032 0-0.050 0-28.251 0-51.157-22.88-51.2-51.121v-163.629c0-8.133-3.129-15.881-8.875-21.625-5.744-5.746-13.492-8.875-21.625-8.875h-572.5c-8.132 0-15.878 3.127-21.625 8.875-5.746 5.745-8.875 13.494-8.875 21.625v163.625c-0.043 28.245-22.949 51.125-51.2 51.125-0.018 0-0.035 0-0.053 0h0.003zM293.25 597c-0.489 0.017-1.064 0.026-1.641 0.026-14.153 0-26.966-5.743-36.233-15.026l-0.001-0.001c-9.256-9.264-14.98-22.057-14.98-36.188s5.724-26.924 14.98-36.188l204.375-204.5c9.271-9.292 22.089-15.040 36.25-15.040s26.979 5.748 36.249 15.039l204.376 204.501c9.256 9.264 14.98 22.057 14.98 36.188s-5.724 26.924-14.98 36.188v0c-9.264 9.256-22.057 14.98-36.188 14.98s-26.924-5.724-36.188-14.98l-168.25-168.25-168.25 168.25c-8.869 8.885-20.983 14.527-34.412 14.998l-0.088 0.002zM496 883.25c-0.015 0-0.032 0-0.050 0-28.277 0-51.2-22.923-51.2-51.2 0-0.018 0-0.035 0-0.053v0.003-490.625c0-0.015 0-0.032 0-0.050 0-28.277 22.923-51.2 51.2-51.2 0.018 0 0.035 0 0.053 0h-0.003c0.015 0 0.032 0 0.050 0 28.277 0 51.2 22.923 51.2 51.2 0 0.018 0 0.035 0 0.053v-0.003 490.625c0 0.015 0 0.032 0 0.050 0 28.277-22.923 51.2-51.2 51.2-0.018 0-0.035 0-0.053 0h0.003z" />
<glyph unicode="&#xe90b;" glyph-name="pen" d="M810.625 925.875c-22.57 0-44.896-4.487-65.75-13.125-20.844-8.637-39.787-21.287-55.75-37.25l-576-576c-6.101-6.134-10.66-13.809-13.040-22.39l-0.085-0.36-64-234.625c-1.146-4.040-1.805-8.681-1.805-13.475 0-28.28 22.925-51.205 51.205-51.205 4.794 0 9.434 0.659 13.835 1.891l-0.36-0.086 234.625 64c8.95 2.502 16.625 7.102 22.748 13.248l576.002 576.002c15.961 15.96 28.614 34.889 37.25 55.75 8.646 20.865 13 43.189 13 65.75s-4.354 44.885-13 65.75c-8.636 20.862-21.289 39.79-37.25 55.75-15.963 15.963-34.897 28.613-55.75 37.25-20.854 8.642-43.302 13.125-65.875 13.125zM810.625 823.5c9.132 0 18.206-1.886 26.625-5.375 8.433-3.493 16.050-8.55 22.5-15 6.452-6.452 11.639-14.079 15.125-22.5 3.488-8.417 5.25-17.49 5.25-26.625s-1.762-18.206-5.25-26.625c-3.486-8.421-8.673-16.048-15.125-22.5l-566.375-566.375-135.125-36.875 36.875 135.125 566.375 566.375c6.45 6.45 14.196 11.507 22.625 15 8.432 3.493 17.377 5.375 26.5 5.375z" />
<glyph unicode="&#xe90c;" glyph-name="email" d="M170.625 840.5c-74.861 0-136.5-61.639-136.5-136.5v-512c0-74.86 61.639-136.5 136.5-136.5h682.75c74.86 0 136.5 61.64 136.5 136.5v512c0 74.861-61.64 136.5-136.5 136.5h-682.75zM170.625 738.125h682.75c19.003 0 34.125-15.119 34.125-34.125v-512c0-19.003-15.122-34.125-34.125-34.125h-682.75c-19.006 0-34.125 15.122-34.125 34.125v512c0 19.006 15.119 34.125 34.125 34.125zM939.75 755.25c-0.3 0.006-0.653 0.010-1.007 0.010-10.997 0-21.184-3.467-29.528-9.367l0.16 0.108-397.375-278.125-397.25 278.125c-8.188 5.802-18.382 9.274-29.388 9.274-17.309 0-32.612-8.589-41.879-21.737l-0.108-0.162c-5.802-8.188-9.274-18.382-9.274-29.388 0-17.309 8.589-32.612 21.737-41.879l0.162-0.108 426.625-298.625c8.185-5.795 18.375-9.264 29.375-9.264s21.19 3.468 29.535 9.371l-0.16-0.107 426.625 298.625c13.31 9.375 21.899 24.678 21.899 41.987 0 11.006-3.472 21.2-9.381 29.548l0.107-0.16c-9.168 13.009-23.992 21.5-40.818 21.874l-0.057 0.001z" />
<glyph unicode="&#xe90d;" glyph-name="exit" d="M640 883.25c-0.015 0-0.032 0-0.050 0-28.277 0-51.2-22.923-51.2-51.2 0-0.018 0-0.035 0-0.053v0.003c0-0.015 0-0.032 0-0.050 0-28.277 22.923-51.2 51.2-51.2 0.018 0 0.035 0 0.053 0h170.622c9.070 0 17.702-3.579 24.125-10 6.415-6.417 10-15.055 10-24.125v-597.25c0-9.068-3.578-17.701-10-24.125-6.424-6.422-15.057-10-24.125-10h-170.625c-0.015 0-0.032 0-0.050 0-28.277 0-51.2-22.923-51.2-51.2 0-0.018 0-0.035 0-0.053v0.003c0-0.015 0-0.032 0-0.050 0-28.277 22.923-51.2 51.2-51.2 0.018 0 0.035 0 0.053 0h170.622c36.193 0 71.036 14.422 96.625 40 25.578 25.589 40 60.432 40 96.625v597.25c0 36.194-14.415 71.035-40 96.625-25.59 25.584-60.434 40-96.625 40h-170.625zM423.5 712.5c-12.966-0.866-24.486-6.435-32.998-14.998l-0.002-0.002c-9.256-9.264-14.98-22.057-14.98-36.188s5.724-26.924 14.98-36.188v0l177.125-177.125-177.125-177.125c-9.256-9.264-14.98-22.057-14.98-36.188s5.724-26.924 14.98-36.188v0c9.264-9.256 22.057-14.98 36.188-14.98s26.924 5.724 36.188 14.98l213.375 213.25c9.292 9.271 15.040 22.089 15.040 36.25s-5.748 26.979-15.039 36.249l-213.376 213.251c-9.275 9.323-22.114 15.092-36.3 15.092-1.082 0-2.156-0.034-3.221-0.1l0.146 0.007zM128 499.25c-0.015 0-0.032 0-0.050 0-28.277 0-51.2-22.923-51.2-51.2 0-0.018 0-0.035 0-0.053v0.003c0-0.015 0-0.032 0-0.050 0-28.277 22.923-51.2 51.2-51.2 0.018 0 0.035 0 0.053 0h511.997c0.015 0 0.032 0 0.050 0 28.277 0 51.2 22.923 51.2 51.2 0 0.018 0 0.035 0 0.053v-0.003c0 0.015 0 0.032 0 0.050 0 28.277-22.923 51.2-51.2 51.2-0.018 0-0.035 0-0.053 0h-511.997z" />
<glyph unicode="&#xe90e;" glyph-name="eye" d="M512 796.889c-300.157 0-457.889-328.556-457.889-328.556-3.023-5.925-4.794-12.922-4.794-20.333s1.771-14.409 4.914-20.592l-0.119 0.259c0 0 157.732-328.556 457.889-328.556s457.889 328.556 457.889 328.556c3.023 5.925 4.794 12.922 4.794 20.333s-1.771 14.409-4.914 20.592l0.119-0.259c0 0-157.733 328.556-457.889 328.556zM512 705.889c213.927 0 342.107-222.926 361.556-257.889-19.449-34.963-147.629-257.889-361.556-257.889s-342.107 222.926-361.556 257.889c19.448 34.963 147.628 257.889 361.556 257.889zM512 607.333c-87.434 0-159.333-71.9-159.333-159.333s71.9-159.333 159.333-159.333c87.435 0 159.333 71.9 159.333 159.333s-71.899 159.333-159.333 159.333zM512 516.222c38.244 0 68.222-29.98 68.222-68.222s-29.978-68.222-68.222-68.222c-38.242 0-68.222 29.98-68.222 68.222s29.98 68.222 68.222 68.222z" />
<glyph unicode="&#xe90f;" glyph-name="filter" d="M512 960c-282.77 0-512-71.634-512-160v-96l384-384v-320c0-35.346 57.306-64 128-64s128 28.654 128 64v320l384 384v96c0 88.366-229.23 160-512 160zM94.384 821.176c23.944 13.658 57.582 26.62 97.278 37.488 87.944 24.076 201.708 37.336 320.338 37.336s232.394-13.26 320.338-37.336c39.696-10.868 73.334-23.83 97.28-37.488 15.792-9.006 24.324-16.624 28.296-21.176-3.972-4.552-12.506-12.168-28.296-21.176-23.946-13.658-57.584-26.62-97.28-37.488-87.942-24.076-201.708-37.336-320.338-37.336s-232.394 13.26-320.338 37.336c-39.696 10.868-73.334 23.83-97.278 37.488-15.792 9.008-24.324 16.624-28.298 21.176 3.974 4.552 12.506 12.168 28.298 21.176z" />
<glyph unicode="&#xe910;" glyph-name="folder-plus" d="M170.625 883.25c-36.192 0-70.909-14.41-96.5-40s-40-60.434-40-96.625v-597.25c0-36.19 14.415-71.035 40-96.625 25.59-25.585 60.306-40 96.5-40h682.75c36.193 0 70.908 14.408 96.5 40 25.594 25.594 40 60.442 40 96.625v469.25c0 36.184-14.4 71.030-40 96.625-25.593 25.597-60.309 40-96.5 40h-356.625l-70.125 105.125c-9.303 13.861-24.911 22.865-42.623 22.875h-213.377zM170.625 780.75h186l70.125-105.125c9.303-13.861 24.911-22.865 42.623-22.875h384.002c9.070 0 17.718-3.592 24.125-10 6.412-6.411 10-15.045 10-24.125v-469.25c0-9.077-3.581-17.706-10-24.125-6.408-6.408-15.057-10-24.125-10h-682.75c-9.070 0-17.708 3.585-24.125 10-6.421 6.422-10 15.054-10 24.125v597.25c0 9.073 3.585 17.71 10 24.125s15.053 10 24.125 10zM512 541.875c-0.015 0-0.032 0-0.050 0-28.277 0-51.2-22.923-51.2-51.2 0-0.018 0-0.035 0-0.053v0.003-256c0.043-28.245 22.949-51.125 51.2-51.125 0.018 0 0.035 0 0.053 0h-0.003c0.015 0 0.032 0 0.050 0 28.251 0 51.157 22.88 51.2 51.121v256.004c0 0.015 0 0.032 0 0.050 0 28.277-22.923 51.2-51.2 51.2-0.018 0-0.035 0-0.053 0h0.003zM384 413.875c-0.015 0-0.032 0-0.050 0-28.277 0-51.2-22.923-51.2-51.2 0-0.018 0-0.035 0-0.053v0.003c0.043-28.245 22.949-51.125 51.2-51.125 0.018 0 0.035 0 0.053 0h255.997c0.015 0 0.032 0 0.050 0 28.251 0 51.157 22.88 51.2 51.121v0.004c0 0.015 0 0.032 0 0.050 0 28.277-22.923 51.2-51.2 51.2-0.018 0-0.035 0-0.053 0h-255.997z" />
<glyph unicode="&#xe911;" glyph-name="folder" d="M170.625 883.25c-36.192 0-70.909-14.41-96.5-40s-40-60.434-40-96.625v-597.25c0-36.19 14.415-71.035 40-96.625 25.59-25.585 60.306-40 96.5-40h682.75c36.193 0 70.908 14.408 96.5 40 25.594 25.594 40 60.442 40 96.625v469.25c0 36.184-14.4 71.030-40 96.625-25.593 25.597-60.309 40-96.5 40h-356.625l-70.125 105.125c-9.303 13.861-24.911 22.865-42.623 22.875h-213.377zM170.625 780.75h186l70.125-105.125c9.303-13.861 24.911-22.865 42.623-22.875h384.002c9.070 0 17.718-3.592 24.125-10 6.412-6.411 10-15.045 10-24.125v-469.25c0-9.077-3.581-17.706-10-24.125-6.408-6.408-15.057-10-24.125-10h-682.75c-9.070 0-17.708 3.585-24.125 10-6.421 6.422-10 15.054-10 24.125v597.25c0 9.073 3.585 17.71 10 24.125s15.053 10 24.125 10z" />
<glyph unicode="&#xe912;" glyph-name="email-open" d="M110.471 646.824c-0.014 0-0.031 0-0.047 0-26.614 0-48.188-21.575-48.188-48.188 0-0.017 0-0.033 0-0.050v0.003-481.882c0-70.456 58.131-128.471 128.588-128.471h642.471c70.456 0 128.471 58.014 128.471 128.471v481.882c0 0.014 0 0.031 0 0.047 0 26.589-21.534 48.148-48.114 48.188h-0.004c-0.014 0-0.031 0-0.047 0-26.614 0-48.188-21.575-48.188-48.188 0-0.017 0-0.033 0-0.050v0.003-481.882c0-17.885-14.233-32.118-32.118-32.118h-642.471c-17.889 0-32.118 14.233-32.118 32.118v481.882c0 0.014 0 0.031 0 0.047 0 26.614-21.575 48.188-48.188 48.188-0.017 0-0.033 0-0.050 0h0.003zM914.588 646.824c-0.282 0.006-0.615 0.009-0.948 0.009-10.35 0-19.938-3.263-27.791-8.816l0.151 0.101-374-261.765-373.882 261.765c-7.706 5.46-17.301 8.729-27.659 8.729-16.291 0-30.693-8.084-39.415-20.459l-0.102-0.152c-5.46-7.706-8.729-17.301-8.729-27.659 0-16.291 8.084-30.693 20.459-39.415l0.152-0.102 401.529-281.059c7.704-5.454 17.294-8.719 27.647-8.719s19.943 3.264 27.798 8.82l-0.151-0.101 401.647 281.059c12.482 8.829 20.532 23.205 20.532 39.462 0 10.382-3.283 19.997-8.868 27.864l0.1-0.149c-8.629 12.243-22.581 20.235-38.417 20.587l-0.054 0.001zM509.765 927.765c-9.556-0.432-18.298-3.583-25.565-8.691l0.154 0.102-401.529-281.059c-12.527-8.824-20.611-23.226-20.611-39.517 0-10.358 3.268-19.953 8.83-27.81l-0.101 0.15c8.824-12.527 23.226-20.611 39.517-20.611 10.358 0 19.953 3.268 27.81 8.83l-0.15-0.101 373.882 261.765 374-261.765c7.69-5.427 17.256-8.673 27.58-8.673 16.267 0 30.651 8.060 39.377 20.405l0.101 0.151c5.484 7.718 8.767 17.333 8.767 27.715 0 16.257-8.050 30.633-20.382 39.361l-0.15 0.101-401.647 281.059c-7.682 5.409-17.234 8.645-27.541 8.645-0.823 0-1.642-0.021-2.455-0.061l0.114 0.005z" />
<glyph unicode="&#xe913;" glyph-name="help" d="M512 925.875c-263.312 0-477.875-214.563-477.875-477.875 0-263.311 214.563-477.875 477.875-477.875 263.315 0 477.875 214.565 477.875 477.875s-214.561 477.875-477.875 477.875zM512 823.5c207.974 0 375.5-167.528 375.5-375.5 0-207.97-167.526-375.5-375.5-375.5-207.971 0-375.5 167.53-375.5 375.5s167.529 375.5 375.5 375.5zM538.875 710.125c-41.7 7.153-84.65-0.688-121.125-22.125s-64.21-55.088-78.25-95c-1.826-5.044-2.882-10.866-2.882-16.935 0-22.205 14.136-41.109 33.9-48.203l0.357-0.112c5.056-1.835 10.891-2.895 16.974-2.895 22.164 0 41.038 14.083 48.163 33.789l0.113 0.357c6.022 17.119 17.854 31.554 33.5 40.75s34.113 12.568 52 9.5c17.887-3.068 34.062-12.366 45.75-26.25s18.027-31.477 18-49.625c0-17.066-15.679-36.411-41.125-53.375s-51.875-26.125-51.875-26.125c-20.51-6.991-34.999-26.088-34.999-48.569 0-5.788 0.961-11.352 2.731-16.541l-0.107 0.36c6.991-20.51 26.088-34.999 48.569-34.999 5.788 0 11.352 0.961 16.541 2.731l-0.36-0.107c0 0 37.696 12.297 76.25 38 38.529 25.686 86.687 70.309 86.75 138.5 0.064 42.309-14.878 83.258-42.125 115.625s-65.051 54.097-106.75 61.25zM512 285.875c-0.015 0-0.032 0-0.050 0-28.277 0-51.2-22.923-51.2-51.2 0-0.018 0-0.035 0-0.053v0.003c0.043-28.245 22.949-51.125 51.2-51.125 0.018 0 0.035 0 0.053 0h0.372c0.015 0 0.032 0 0.050 0 28.251 0 51.157 22.88 51.2 51.121v0.004c0 0.015 0 0.032 0 0.050 0 28.277-22.923 51.2-51.2 51.2-0.018 0-0.035 0-0.053 0h-0.372z" />
<glyph unicode="&#xe914;" glyph-name="info" d="M512 925.875c-263.312 0-477.875-214.563-477.875-477.875 0-263.311 214.563-477.875 477.875-477.875 263.315 0 477.875 214.565 477.875 477.875s-214.561 477.875-477.875 477.875zM512 823.5c207.974 0 375.5-167.528 375.5-375.5 0-207.97-167.526-375.5-375.5-375.5-207.971 0-375.5 167.53-375.5 375.5s167.529 375.5 375.5 375.5zM512 499.25c-0.015 0-0.032 0-0.050 0-28.277 0-51.2-22.923-51.2-51.2 0-0.018 0-0.035 0-0.053v0.003-170.625c0-0.015 0-0.032 0-0.050 0-28.277 22.923-51.2 51.2-51.2 0.018 0 0.035 0 0.053 0h-0.003c0.015 0 0.032 0 0.050 0 28.277 0 51.2 22.923 51.2 51.2 0 0.018 0 0.035 0 0.053v-0.003 170.625c0 0.015 0 0.032 0 0.050 0 28.277-22.923 51.2-51.2 51.2-0.018 0-0.035 0-0.053 0h0.003zM512 669.875c-0.015 0-0.032 0-0.050 0-28.277 0-51.2-22.923-51.2-51.2 0-0.018 0-0.035 0-0.053v0.003c0.043-28.245 22.949-51.125 51.2-51.125 0.018 0 0.035 0 0.053 0h0.372c0.015 0 0.032 0 0.050 0 28.251 0 51.157 22.88 51.2 51.121v0.004c0 0.015 0 0.032 0 0.050 0 28.277-22.923 51.2-51.2 51.2-0.018 0-0.035 0-0.053 0h-0.372z" />
<glyph unicode="&#xe915;" glyph-name="lock" d="M213.375 541.875c-74.799 0-136.625-61.701-136.625-136.5v-298.75c0-74.797 61.824-136.5 136.625-136.5h597.25c74.799 0 136.625 61.701 136.625 136.5v298.75c0 74.801-61.828 136.5-136.625 136.5h-597.25zM213.375 439.5h597.25c19.449 0 34.125-14.669 34.125-34.125v-298.75c0-19.448-14.678-34.125-34.125-34.125h-597.25c-19.456 0-34.125 14.675-34.125 34.125v298.75c0 19.458 14.668 34.125 34.125 34.125zM512 925.875c-70.139 0-137.529-27.905-187.125-77.5s-77.375-116.861-77.375-187v-170.75c0.043-28.218 22.907-51.082 51.121-51.125h0.004c0.015 0 0.032 0 0.050 0 28.251 0 51.157 22.88 51.2 51.121v170.754c0 43.020 17.080 84.205 47.5 114.625s71.605 47.5 114.625 47.5 84.202-17.079 114.625-47.5c30.419-30.42 47.5-71.605 47.5-114.625v-170.75c0.043-28.245 22.949-51.125 51.2-51.125 0.018 0 0.035 0 0.053 0h-0.003c28.218 0.043 51.082 22.907 51.125 51.121v170.754c0 70.14-27.906 137.405-77.5 187-49.598 49.594-116.861 77.5-187 77.5z" />
<glyph unicode="&#xe916;" glyph-name="organization" d="M246.556 379.778c-52.289 0-102.473-20.814-139.444-57.778-36.972-36.973-57.778-87.155-57.778-139.444v-75.889c0-0.013 0-0.029 0-0.044 0-25.112 20.338-45.473 45.441-45.511h0.004c0.013 0 0.029 0 0.044 0 25.135 0 45.511 20.376 45.511 45.511 0 0.016 0 0.031 0 0.047v-0.002 75.889c0 28.185 11.184 55.073 31.111 75 19.929 19.925 46.932 31.111 75.111 31.111h303.333c28.176 0 55.183-11.187 75.111-31.111 19.928-19.928 31.111-46.816 31.111-75v-75.889c0-0.013 0-0.029 0-0.044 0-25.135 20.376-45.511 45.511-45.511 0.016 0 0.031 0 0.047 0h-0.002c25.106 0.038 45.444 20.399 45.444 45.511 0 0.016 0 0.031 0 0.047v-0.002 75.889c0 52.291-20.806 102.472-57.778 139.444-36.972 36.964-87.157 57.778-139.444 57.778h-303.333zM398.222 834.889c-108.38 0-197.222-88.843-197.222-197.222s88.843-197.222 197.222-197.222c108.38 0 197.222 88.842 197.222 197.222s-88.842 197.222-197.222 197.222zM398.222 743.778c59.188 0 106.222-46.924 106.222-106.111s-47.034-106.222-106.222-106.222c-59.188 0-106.222 47.034-106.222 106.222s47.035 106.111 106.222 106.111zM814.111 374.778c-20.559-0.6-37.654-14.745-42.706-33.793l-0.072-0.318c-0.919-3.416-1.447-7.338-1.447-11.384 0-21.085 14.338-38.82 33.796-43.989l0.318-0.072c22.79-5.884 43.024-19.175 57.444-37.778 14.423-18.607 22.206-41.464 22.222-65v-75.778c0-0.013 0-0.029 0-0.044 0-25.135 20.376-45.511 45.511-45.511 0.016 0 0.031 0 0.047 0h-0.002c25.106 0.038 45.444 20.399 45.444 45.511 0 0.016 0 0.031 0 0.047v-0.002 75.889c-0.030 43.696-14.569 86.14-41.333 120.667-26.767 34.531-64.253 59.19-106.556 70.111-3.432 0.928-7.373 1.461-11.439 1.461-0.432 0-0.862-0.006-1.291-0.018l0.063 0.001zM662.222 829.889c-20.542-0.665-37.594-14.844-42.596-33.905l-0.071-0.317c-0.893-3.369-1.406-7.238-1.406-11.226 0-21.151 14.428-38.931 33.978-44.037l0.317-0.070c22.849-5.85 43.090-19.143 57.556-37.778 14.462-18.63 22.222-41.521 22.222-65.111s-7.76-46.481-22.222-65.111c-14.466-18.634-34.707-31.927-57.556-37.778-19.867-5.176-34.295-22.957-34.295-44.107 0-3.988 0.513-7.856 1.477-11.543l-0.070 0.317c5.167-19.881 22.954-34.322 44.114-34.322 4.026 0 7.93 0.523 11.648 1.504l-0.317-0.071c42.414 10.86 80.042 35.638 106.889 70.222 26.851 34.589 41.444 77.109 41.444 120.889s-14.594 86.3-41.444 120.889c-26.847 34.584-64.475 59.251-106.889 70.111-3.436 0.93-7.38 1.464-11.45 1.464-0.467 0-0.932-0.007-1.396-0.021l0.068 0.002z" />
<glyph unicode="&#xe917;" glyph-name="plus" d="M512 797.875c-0.015 0-0.032 0-0.050 0-28.277 0-51.2-22.923-51.2-51.2 0-0.018 0-0.035 0-0.053v0.003-597.25c0-0.015 0-0.032 0-0.050 0-28.277 22.923-51.2 51.2-51.2 0.018 0 0.035 0 0.053 0h-0.003c0.015 0 0.032 0 0.050 0 28.277 0 51.2 22.923 51.2 51.2 0 0.018 0 0.035 0 0.053v-0.003 597.25c0 0.015 0 0.032 0 0.050 0 28.277-22.923 51.2-51.2 51.2-0.018 0-0.035 0-0.053 0h0.003zM213.375 499.25c-0.015 0-0.032 0-0.050 0-28.277 0-51.2-22.923-51.2-51.2 0-0.018 0-0.035 0-0.053v0.003c0-0.015 0-0.032 0-0.050 0-28.277 22.923-51.2 51.2-51.2 0.018 0 0.035 0 0.053 0h597.247c0.015 0 0.032 0 0.050 0 28.277 0 51.2 22.923 51.2 51.2 0 0.018 0 0.035 0 0.053v-0.003c0 0.015 0 0.032 0 0.050 0 28.277-22.923 51.2-51.2 51.2-0.018 0-0.035 0-0.053 0h-597.247z" />
<glyph unicode="&#xe918;" glyph-name="search" d="M469.375 896c-223.101 0-405.375-182.274-405.375-405.375 0-223.104 182.274-405.25 405.375-405.25 223.104 0 405.25 182.146 405.25 405.25 0 223.101-182.146 405.375-405.25 405.375zM469.375 768c153.929 0 277.25-123.45 277.25-277.375 0-153.929-123.321-277.25-277.25-277.25-153.925 0-277.375 123.321-277.375 277.25 0 153.925 123.45 277.375 277.375 277.375zM712.25 313.625c-0.548 0.017-1.192 0.026-1.839 0.026-17.689 0-33.701-7.176-45.285-18.776l-0.001-0.001c-11.579-11.581-18.74-27.579-18.74-45.25s7.162-33.669 18.74-45.25l185.625-185.625c11.581-11.579 27.579-18.74 45.25-18.74s33.669 7.161 45.25 18.74v0c11.579 11.581 18.74 27.579 18.74 45.25s-7.161 33.669-18.74 45.25l-185.625 185.625c-11.145 11.161-26.387 18.226-43.277 18.748l-0.098 0.002z" />
<glyph unicode="&#xe919;" glyph-name="setup" d="M512 607.333c-87.434 0-159.333-71.9-159.333-159.333 0-87.435 71.9-159.333 159.333-159.333s159.333 71.899 159.333 159.333c0 87.433-71.899 159.333-159.333 159.333zM512 516.222c38.244 0 68.222-29.98 68.222-68.222 0-38.245-29.977-68.222-68.222-68.222-38.243 0-68.222 29.978-68.222 68.222 0 38.242 29.98 68.222 68.222 68.222zM512 910.667c-32.17 0-63.030-12.808-85.778-35.556s-35.556-53.607-35.556-85.778v-6.444c-0.054-3.256-1.088-6.503-2.889-9.222-1.287-1.943-3.293-3.070-5.222-4.333-2.296-0.67-4.213-1.389-6.064-2.227l0.286 0.116c-3.124-1.379-6.532-1.72-9.889-1.111-3.359 0.609-6.448 2.168-8.889 4.556l-1.889 1.889c-11.271 11.284-24.712 20.226-39.444 26.333s-30.495 9.222-46.444 9.222c-15.949 0-31.711-3.115-46.444-9.222-14.731-6.107-28.172-15.048-39.444-26.333-11.282-11.27-20.226-24.599-26.333-39.333-6.107-14.732-9.222-30.495-9.222-46.444s3.115-31.823 9.222-46.556c6.108-14.734 15.051-28.063 26.333-39.333l2-1.889c2.388-2.441 3.946-5.528 4.556-8.889s0.156-6.877-1.222-10c-0.253-0.569-0.592-1.452-0.903-2.347l-0.097-0.319c-1.184-3.219-3.322-6.005-6.111-8s-6.128-3.031-9.556-3.111h-2.333c-32.17 0-63.030-12.808-85.778-35.556s-35.556-53.607-35.556-85.778c0-32.171 12.808-63.142 35.556-85.889 22.751-22.754 53.614-35.556 85.778-35.556h6.444c3.221-0.054 6.408-1.013 9.111-2.778 2.791-1.849 5.022-4.495 6.333-7.556 0.193-0.408 0.267-0.554 0.342-0.699l-0.119 0.255c1.381-3.129 1.721-6.523 1.111-9.889-0.609-3.36-2.166-6.446-4.556-8.889l-1.889-1.889c-11.271-11.264-20.224-24.705-26.333-39.444-6.104-14.73-9.333-30.496-9.333-46.444s3.229-31.714 9.333-46.444c6.086-14.676 14.983-28.081 26.222-39.333 0.022-0.022 0.089 0.022 0.111 0s-0.022-0.089 0-0.111c11.253-11.24 24.656-20.249 39.333-26.333 14.723-6.103 30.485-9.222 46.444-9.222s31.721 3.119 46.444 9.222c0.017 0 0.036 0 0.056 0s0.039 0 0.059 0h-0.003c14.726 6.105 28.057 15.153 39.333 26.444l1.889 1.889c2.441 2.387 5.531 3.947 8.889 4.556s6.869 0.159 10-1.222c0.569-0.253 1.452-0.592 2.347-0.903l0.319-0.097c3.213-1.182 5.892-3.32 7.889-6.111 1.993-2.786 3.142-6.125 3.222-9.556v-2.333c0-32.169 12.813-63.031 35.556-85.778 22.746-22.742 53.606-35.556 85.778-35.556s63.143 12.814 85.889 35.556c22.738 22.745 35.444 53.606 35.444 85.778v6.444c0.055 3.268 1.099 6.411 2.889 9.111 0 0.017 0 0.036 0 0.056s0 0.039 0 0.059v-0.003c1.831 2.767 4.489 4.908 7.556 6.222 0.408 0.193 0.554 0.267 0.699 0.342l-0.255-0.119c3.098 1.369 6.515 1.723 9.889 1.111 3.354-0.608 6.454-2.173 8.889-4.556l1.889-1.889c11.268-11.277 24.713-20.224 39.444-26.333 14.737-6.108 30.503-9.333 46.444-9.333 15.944 0 31.705 3.221 46.444 9.333 14.747 6.112 28.188 15.077 39.444 26.333s20.11 24.586 26.222 39.333c6.113 14.74 9.333 30.501 9.333 46.444 0 15.905-3.248 31.734-9.333 46.444v0.111c-6.109 14.707-15.078 28.087-26.333 39.333l-1.889 1.889c-2.383 2.435-3.947 5.535-4.556 8.889-0.612 3.376-0.265 6.772 1.111 9.889-0.035-0.118 0.040 0.065 0.114 0.249l0.109 0.306c1.314 3.067 3.566 5.613 6.333 7.444 2.7 1.79 5.843 2.834 9.111 2.889h3.444c32.174 0 63.034 12.811 85.778 35.556 22.752 22.747 35.556 53.606 35.556 85.778s-12.804 63.031-35.556 85.778c-22.745 22.75-53.607 35.556-85.778 35.556h-6.444c-3.256 0.054-6.499 1.086-9.222 2.889-1.946 1.289-3.069 3.293-4.333 5.222-0.67 2.296-1.389 4.213-2.227 6.064l0.116-0.286c-1.381 3.131-1.72 6.532-1.111 9.889s2.168 6.448 4.556 8.889l1.889 1.889c11.283 11.268 20.225 24.687 26.333 39.444 6.103 14.723 9.222 30.485 9.222 46.444s-3.119 31.721-9.222 46.444c-6.097 14.729-15.081 28.079-26.333 39.333-11.267 11.283-24.594 20.336-39.333 26.444-14.73 6.104-30.496 9.222-46.444 9.222s-31.826-3.118-46.556-9.222c0-0.017 0-0.036 0-0.056s0-0.039 0-0.059v0.003c-14.724-6.106-28.058-15.042-39.333-26.333l-1.889-1.889c-2.436-2.383-5.526-3.946-8.889-4.556-3.352-0.608-6.876-0.156-10 1.222 0.168-0.032 0.019 0.007-0.13 0.044l-0.314 0.067c-3.062 1.313-5.602 3.552-7.444 6.333-1.803 2.724-2.836 5.866-2.889 9.111v3.444c0 32.172-12.809 63.031-35.556 85.778s-53.608 35.556-85.778 35.556zM512 819.667c8.065 0 15.742-3.187 21.444-8.889s8.889-13.382 8.889-21.444v-3.444c0-0.017 0-0.036 0-0.056s0-0.039 0-0.059v0.003c0.079-21.089 6.372-41.768 18-59.333 11.565-17.456 27.909-31.125 47.111-39.444 0.034-0.015 0.077 0.015 0.111 0 19.729-8.681 41.568-11.291 62.778-7.444 21.247 3.852 40.894 14.007 56.333 29.111 0.113 0.112 0.222 0.22 0.33 0.33l2.226 2.226c0 0.017 0 0.036 0 0.056s0 0.039 0 0.059v-0.003c2.81 2.814 6.204 5.027 9.889 6.556 3.691 1.529 7.681 2.333 11.667 2.333s7.865-0.804 11.556-2.333c3.681-1.526 7.070-3.733 9.889-6.556 0-0.017 0-0.036 0-0.056s0-0.039 0-0.059v0.003c2.825-2.821 5.041-6.119 6.556-9.778 1.531-3.694 2.333-7.69 2.333-11.667s-0.802-7.973-2.333-11.667c-1.514-3.659-3.73-6.956-6.556-9.778l-2.333-2.333c-0.113-0.112-0.222-0.22-0.33-0.33l-0.004-0.004c-15.1-15.436-25.149-35.085-29-56.333s-1.267-43.141 7.444-62.889l-3.889 18.333v-3c0.001-6.464 1.35-12.614 3.781-18.182l-0.114 0.293c8.306-19.382 22.106-35.922 39.667-47.556 17.572-11.635 38.148-17.916 59.222-18 0.033 0 0.072 0 0.111 0s0.078 0 0.117 0h6.438c8.072 0 15.745-3.189 21.444-8.889 5.704-5.703 8.889-13.382 8.889-21.444s-3.185-15.741-8.889-21.444c-5.701-5.701-13.375-8.889-21.444-8.889h-3.444c-0.033 0-0.072 0-0.111 0s-0.078 0-0.117 0h0.006c-21.060-0.088-41.639-6.347-59.222-18-17.499-11.581-31.131-28.089-39.444-47.333-8.654-19.71-11.279-41.507-7.444-62.667 3.852-21.245 14.006-40.894 29.111-56.333 0.112-0.113 0.22-0.221 0.33-0.33l2.226-2.226c2.82-2.818 5.142-6.209 6.667-9.889 1.522-3.669 2.333-7.674 2.333-11.667 0-4.001-0.812-7.886-2.333-11.556-1.523-3.673-3.826-7.048-6.667-9.889s-6.104-5.144-9.778-6.667c-0.017 0-0.036 0-0.056 0s-0.039 0-0.059 0h0.003c-3.669-1.522-7.554-2.222-11.556-2.222-3.992 0-7.983 0.696-11.667 2.222-3.678 1.525-6.96 3.846-9.778 6.667l-2.333 2.222c-0.194 0.265-0.303 0.41-0.414 0.554l0.080-0.109c-15.439 15.105-35.089 25.148-56.333 29-21.162 3.835-42.949 1.217-62.667-7.444-19.244-8.313-35.752-21.946-47.333-39.444-11.653-17.583-17.912-38.162-18-59.222 0-0.033 0-0.072 0-0.111s0-0.078 0-0.117v0.006-6.444c0-8.060-3.18-15.734-8.889-21.444-5.704-5.703-13.382-8.889-21.444-8.889s-15.741 3.186-21.444 8.889c-5.708 5.709-8.889 13.382-8.889 21.444v3.444c0.002 0.149 0.003 0.324 0.003 0.5s-0.001 0.351-0.003 0.527v-0.027c-0.507 21.68-7.494 42.696-20.111 60.333-12.314 17.214-29.699 30.193-49.444 37.778-19.388 8.235-40.686 10.985-61.444 7.222-21.248-3.851-40.897-14.011-56.333-29.111-0.113-0.112-0.221-0.22-0.33-0.33l-2.226-2.226c-0.038-0.037-0.074-0.074-0.11-0.11l-0.001-0.001c-2.813-2.817-6.087-5.026-9.778-6.556-3.694-1.531-7.69-2.333-11.667-2.333s-7.862 0.802-11.556 2.333c-3.691 1.53-7.076 3.739-9.889 6.556 0 0.017 0 0.036 0 0.056s0 0.039 0 0.059v-0.003c-2.814 2.81-5.138 6.093-6.667 9.778-1.529 3.691-2.222 7.681-2.222 11.667s0.693 7.976 2.222 11.667c1.526 3.681 3.832 6.945 6.667 9.778l2.222 2.333c0.265 0.194 0.41 0.303 0.554 0.414l-0.109-0.080c15.097 15.432 25.148 35.084 29 56.333 3.838 21.17 1.198 42.969-7.444 62.667-8.317 19.25-21.974 35.759-39.444 47.333-17.566 11.628-38.148 17.912-59.222 18-0.033 0-0.072 0-0.111 0s-0.078 0-0.117 0h-6.438c-8.071 0-15.745 3.189-21.444 8.889-5.703 5.703-8.889 13.38-8.889 21.444s3.187 15.743 8.889 21.444c5.703 5.703 13.381 8.889 21.444 8.889h3.444c0.149-0.002 0.324-0.003 0.5-0.003s0.351 0.001 0.527 0.003h-0.027c21.679 0.507 42.696 7.497 60.333 20.111 17.262 12.346 30.205 29.752 37.778 49.556 8.207 19.368 10.979 40.615 7.222 61.333-3.853 21.245-14.012 40.897-29.111 56.333-0.112 0.113-0.22 0.222-0.33 0.33l-2.226 2.226c-0.017 0-0.036 0-0.056 0s-0.039 0-0.059 0h0.003c-2.822 2.819-5.029 6.206-6.556 9.889s-2.333 7.679-2.333 11.667c0 3.987 0.806 7.872 2.333 11.556s3.734 7.070 6.556 9.889c0.017 0 0.036 0 0.056 0s0.039 0 0.059 0h-0.003c2.817 2.82 6.093 5.028 9.778 6.556 3.683 1.527 7.679 2.333 11.667 2.333s7.872-0.806 11.556-2.333c3.685-1.527 7.071-3.735 9.889-6.556l2.333-2.222c0.194-0.265 0.303-0.41 0.414-0.554l-0.080 0.109c15.436-15.099 35.087-25.148 56.333-29 21.248-3.854 43.135-1.274 62.889 7.444l-18.333-3.889h3c6.464 0.001 12.614 1.35 18.182 3.781l-0.293-0.114c19.372 8.303 35.919 22.095 47.556 39.667s17.916 38.145 18 59.222c0 0.033 0 0.072 0 0.111s0 0.078 0 0.117v-0.006 6.444c0 8.064 3.186 15.742 8.889 21.444s13.379 8.889 21.444 8.889z" />
<glyph unicode="&#xe91a;" glyph-name="eye-close" d="M512 796.889c-30.301 0.062-60.496-3.316-90-10.222-20.347-4.83-35.249-22.846-35.249-44.343 0-12.583 5.106-23.973 13.359-32.212l415.001-415.223c8.241-8.261 19.636-13.372 32.225-13.372 13.915 0 26.372 6.244 34.721 16.084l0.054 0.066c33.481 39.793 62.706 83.027 87.222 128.889 3.375 6.202 5.359 13.583 5.359 21.427 0 7.418-1.775 14.422-4.923 20.61l0.119-0.259c0 0-157.698 328.469-457.778 328.556h-0.111zM288.222 718.778c-0.437 0.015-0.951 0.024-1.467 0.024-10.446 0-20.070-3.519-27.751-9.436l0.107 0.079c-84.455-64.49-154.201-146.255-204.444-239.889-3.393-6.216-5.387-13.615-5.387-21.48 0-7.441 1.785-14.465 4.951-20.666l-0.119 0.258c0 0 157.732-328.556 457.889-328.556 0.116-0.001 0.252-0.002 0.389-0.002s0.273 0.001 0.41 0.002h-0.021c91.214 1.49 179.559 32.139 252.111 87.444 10.912 8.401 17.874 21.468 17.874 36.161 0 12.563-5.090 23.937-13.319 32.172l-143.889 143.889c-0.689 0.734-1.377 1.423-2.087 2.088l-0.024 0.023-158.556 158.556c-0.988 1.046-2.002 2.025-3.061 2.956l-0.051 0.044-142.889 143c-7.884 7.897-18.651 12.912-30.588 13.331l-0.078 0.002zM541.111 697.778c196.591-21.818 314.949-218.128 332.889-250.444-10.085-17.144-21.738-33.181-33.333-49.333l-299.556 299.778zM285.667 610l87.111-87.111c-2.629-4.6-6.947-8.031-9.111-12.889-8.705-19.538-13.4-40.613-13.778-62s3.544-42.722 11.556-62.556c8.011-19.804 20.009-37.787 35.111-52.889 15.126-15.125 33.059-27.1 52.889-35.111 19.834-8.012 41.173-11.93 62.556-11.556 21.371 0.382 42.447 5.059 62 13.778 4.859 2.164 8.288 6.482 12.889 9.111l75.333-75.333c-46.719-24.92-97.101-42.276-150.556-43.222-214.193 0.279-342.728 224.225-361.667 258.333 36.085 61.079 82.034 115.094 135.667 161.444zM442.444 453.222l74.778-74.778c-2.355-0.289-4.505-1.513-6.889-1.556-9.171-0.16-18.277 1.566-26.778 5-8.504 3.435-16.184 8.518-22.667 15s-11.567 14.165-15 22.667c-3.434 8.501-5.162 17.611-5 26.778 0.042 2.38 1.267 4.536 1.556 6.889zM96.333 910.667c-0.435 0.015-0.946 0.023-1.459 0.023-12.581 0-23.969-5.105-32.207-13.356l-0.001-0.001c-8.227-8.234-13.315-19.606-13.315-32.167s5.088-23.932 13.316-32.167v0l834.333-834.333c8.234-8.227 19.606-13.315 32.167-13.315s23.932 5.088 32.167 13.316v0c8.227 8.234 13.315 19.606 13.315 32.167s-5.088 23.932-13.316 32.167l-834.333 834.333c-7.883 7.897-18.651 12.913-30.589 13.331l-0.078 0.002z" />
<glyph unicode="&#xe91b;" glyph-name="update" d="M929.222 808.333c-31.419 0-56.889-25.47-56.889-56.889v0-170.667h-170.667c-31.419 0-56.889-25.47-56.889-56.889v0c0-31.419 25.47-56.889 56.889-56.889v0h227.556c31.418 0.003 56.886 25.471 56.889 56.889v0 227.556c0 31.419-25.47 56.889-56.889 56.889v0zM94.778 429.111c-31.418-0.003-56.886-25.471-56.889-56.889v0-227.556c0-31.419 25.47-56.889 56.889-56.889v0c31.419 0 56.889 25.47 56.889 56.889v0 170.667h170.667c31.419 0 56.889 25.47 56.889 56.889v0c0 31.419-25.47 56.889-56.889 56.889v0h-227.556zM426.444 825.333c-63.734-14.421-122.826-44.812-171.667-88.222s-85.868-98.51-107.667-160.111c-1.639-4.504-2.586-9.703-2.586-15.123 0-19.664 12.471-36.416 29.936-42.776l0.316-0.101c4.532-1.661 9.765-2.621 15.222-2.621 19.677 0 36.438 12.488 42.789 29.971l0.101 0.317c16.671 47.11 44.982 89.246 82.333 122.444s82.481 56.416 131.222 67.444c48.741 11.028 99.55 9.552 147.556-4.333 48.003-13.885 91.672-39.766 127-75.111 0.332-0.342 0.658-0.668 0.989-0.989l0.011-0.011 176-165.333c8.123-7.647 19.096-12.346 31.167-12.346 13.065 0 24.845 5.506 33.145 14.323l0.022 0.023c7.647 8.123 12.346 19.096 12.346 31.167 0 13.065-5.506 24.845-14.323 33.145l-0.023 0.022-175 164.333c-46.194 46.216-103.34 79.954-166.111 98.111-62.772 18.157-129.044 20.198-192.778 5.778zM94.889 417.778c-0.020 0-0.044 0-0.068 0-13.059 0-24.833-5.5-33.133-14.31l-0.021-0.023c-7.647-8.123-12.346-19.096-12.346-31.167 0-13.065 5.506-24.845 14.323-33.145l0.023-0.022 174.889-164.444c0.036-0.036 0.075-0.075 0.111-0.111 46.175-46.164 103.276-79.859 166-98 62.771-18.155 129.156-20.090 192.889-5.667 63.734 14.422 122.827 44.7 171.667 88.111 48.846 43.411 85.869 98.51 107.667 160.111 1.653 4.522 2.609 9.743 2.609 15.187 0 19.714-12.535 36.501-30.069 42.824l-0.317 0.1c-4.494 1.631-9.681 2.574-15.088 2.574-19.701 0-36.479-12.518-42.812-30.035l-0.1-0.317c-16.671-47.112-44.982-89.138-82.333-122.333-37.347-33.196-82.587-56.414-131.333-67.444-48.737-11.029-99.439-9.551-147.444 4.333s-91.672 39.653-127 75c-0.332 0.342-0.658 0.668-0.989 0.989l-0.011 0.011-176 165.444c-8.111 7.63-19.062 12.322-31.109 12.333h-0.002z" />
<glyph unicode="&#xe91c;" glyph-name="user" d="M341.375 371.25c-58.825 0-115.282-23.416-156.875-65-41.594-41.595-65-98.049-65-156.875v-85.375c0-0.015 0-0.032 0-0.050 0-28.251 22.88-51.157 51.121-51.2h0.004c0.015 0 0.032 0 0.050 0 28.277 0 51.2 22.923 51.2 51.2 0 0.018 0 0.035 0 0.053v-0.003 85.375c0 31.708 12.582 61.957 35 84.375 22.42 22.415 52.798 35 84.5 35h341.25c31.698 0 62.080-12.585 84.5-35 22.419-22.419 35-52.668 35-84.375v-85.375c0-0.015 0-0.032 0-0.050 0-28.277 22.923-51.2 51.2-51.2 0.018 0 0.035 0 0.053 0h-0.003c28.245 0.043 51.125 22.949 51.125 51.2 0 0.018 0 0.035 0 0.053v-0.003 85.375c0 58.828-23.406 115.281-65 156.875-41.593 41.585-98.052 65-156.875 65h-341.25zM512 883.25c-121.927 0-221.875-99.948-221.875-221.875s99.948-221.875 221.875-221.875c121.927 0 221.875 99.948 221.875 221.875s-99.948 221.875-221.875 221.875zM512 780.75c66.586 0 119.5-52.788 119.5-119.375s-52.914-119.5-119.5-119.5c-66.586 0-119.5 52.914-119.5 119.5s52.914 119.375 119.5 119.375z" />
<glyph unicode="&#xe91d;" glyph-name="files" d="M166.75 725.875c-31.694 0-62.308-11.873-85.375-33.875s-36.625-52.639-36.625-84.75v-539.75c0-32.112 13.562-62.752 36.625-84.75 23.065-21.999 53.678-34 85.375-34h424.375c31.697 0 62.31 12.001 85.375 34 23.070 22.001 36.625 52.644 36.625 84.75v371.125c-0.019 14.548-6.101 27.671-15.855 36.981l-0.020 0.019-247.625 236.125c-9.154 8.73-21.572 14.108-35.247 14.125h-247.628zM166.75 623.5h227l217-206.875v-349.125c0-3.696-1.41-7.321-4.875-10.625-3.467-3.307-8.926-5.625-14.75-5.625h-424.375c-5.823 0-11.283 2.318-14.75 5.625s-4.75 6.935-4.75 10.625v539.75c0 3.679 1.285 7.32 4.75 10.625s8.923 5.625 14.75 5.625zM414.25 725.875c-28.218-0.043-51.082-22.907-51.125-51.121v-236.129c0-0.013 0-0.029 0-0.045 0-28.252 22.88-51.159 51.121-51.205h247.629c0.015 0 0.032 0 0.050 0 28.277 0 51.2 22.923 51.2 51.2 0 0.018 0 0.035 0 0.053v-0.003c-0.043 28.245-22.949 51.125-51.2 51.125-0.018 0-0.035 0-0.053 0h-196.372v185c-0.043 28.245-22.949 51.125-51.2 51.125-0.018 0-0.035 0-0.053 0h0.003zM432.875 947.25c-31.694 0-62.309-11.998-85.375-34s-36.625-52.639-36.625-84.75v-149.125c0.043-28.245 22.949-51.125 51.2-51.125 0.018 0 0.035 0 0.053 0h-0.003c28.218 0.043 51.082 22.907 51.125 51.121v149.129c0 3.678 1.41 7.445 4.875 10.75s8.922 5.5 14.75 5.5h227l216.875-206.875v-349.125c0-3.684-1.41-7.321-4.875-10.625s-8.793-5.625-14.625-5.625h-185.25c-0.015 0-0.032 0-0.050 0-28.277 0-51.2-22.923-51.2-51.2 0-0.018 0-0.035 0-0.053v0.003c0.043-28.245 22.949-51.125 51.2-51.125 0.018 0 0.035 0 0.053 0h185.247c31.685 0 62.304 11.862 85.375 33.875 23.070 22.001 36.5 52.646 36.5 84.75v371.125c0 0.016 0 0.036 0 0.055 0 14.51-6.035 27.611-15.733 36.928l-0.017 0.016-247.625 236.125c-9.168 8.804-21.636 14.231-35.371 14.25h-247.504zM680.375 940.75c-24.703-0.028-44.722-20.047-44.75-44.747v-236.128c0-0.021 0-0.046 0-0.071 0-24.726 20.029-44.773 44.747-44.804h247.628c24.721 0.028 44.75 20.075 44.75 44.8 0 0.026 0 0.053 0 0.079v-0.004c-0.028 24.703-20.047 44.722-44.747 44.75h-202.753v191.375c-0.028 24.721-20.075 44.75-44.8 44.75-0.026 0-0.053 0-0.079 0h0.004z" />
<glyph unicode="&#xe91e;" glyph-name="status" d="M512 960c-282.239 0-512-229.761-512-512s229.761-512 512-512c282.239 0 512 229.761 512 512s-229.761 512-512 512zM512 870.375c233.816 0 422.375-188.559 422.375-422.375s-188.559-422.375-422.375-422.375c-233.816 0-422.375 188.559-422.375 422.375s188.559 422.375 422.375 422.375zM832 448c0-176.731-143.269-320-320-320s-320 143.269-320 320c0 176.731 143.269 320 320 320s320-143.269 320-320z" />
<glyph unicode="&#xe91f;" glyph-name="gears" d="M680.576 254.752l22.688 22.688c25.056 25.056 25.056 65.696 0 90.752l-39.168 39.136c12.608 21.952 22.496 45.568 29.376 70.496h42.368c35.424 0 64.16 28.736 64.16 64.16v32.064c0 35.424-28.704 64.16-64.16 64.16h-41.856c-6.656 24.672-16.096 48.16-28.384 69.952l37.664 37.632c25.056 25.056 25.056 65.696 0 90.752l-22.688 22.656c-25.056 25.056-65.696 25.056-90.752 0l-36.896-36.896c-22.56 13.152-46.944 23.392-72.704 30.432v43.104c-0.032 35.456-28.768 64.16-64.192 64.16h-32.064c-35.424 0-64.192-28.704-64.192-64.16v-43.104c-25.76-7.040-50.112-17.28-72.704-30.432l-36.928 36.928c-25.024 25.056-65.664 25.056-90.72 0l-22.688-22.656c-25.056-25.056-25.056-65.696 0-90.752l37.632-37.664c-12.256-21.792-21.76-45.28-28.384-69.984h-41.824c-35.456 0.032-64.16-28.704-64.16-64.16v-32.064c0-35.424 28.704-64.16 64.16-64.16h42.336c6.912-24.928 16.768-48.544 29.408-70.496l-39.168-39.136c-25.056-25.056-25.056-65.696 0-90.752l22.688-22.688c25.056-25.056 65.696-25.056 90.72 0l39.392 39.392c21.888-12.448 45.408-22.144 70.208-28.896v-41.088c0-35.392 28.736-64.16 64.192-64.16h32.064c35.424 0 64.16 28.736 64.16 64.16v41.088c24.8 6.752 48.384 16.48 70.208 28.896l39.392-39.392c25.12-25.024 65.728-25.024 90.816 0.032zM400 380.576c-97.44 0-176.448 78.976-176.448 176.448 0 97.44 79.008 176.448 176.448 176.448s176.448-79.008 176.448-176.448c0-97.472-79.008-176.448-176.448-176.448zM400 639.2c-44.32 0-80.224-35.904-80.224-80.192s35.904-80.192 80.224-80.192c44.288 0 80.192 35.904 80.192 80.192s-35.904 80.192-80.192 80.192zM801.984 36.416c-21.504 0-38.912-17.408-38.912-38.912 0-21.472 17.408-38.88 38.912-38.88 21.472 0 38.912 17.408 38.912 38.88 0 21.504-17.44 38.912-38.912 38.912zM964.864 35.936h-20.288c-3.232 11.968-7.84 23.36-13.792 33.952l18.24 18.24c12.16 12.16 12.16 31.872 0 44l-11.008 11.008c-12.16 12.16-31.84 12.16-44 0l-17.92-17.888c-10.944 6.368-22.784 11.328-35.264 14.752v20.864c0 17.184-13.952 31.136-31.136 31.136h-15.552c-17.184 0-31.136-13.952-31.136-31.136v-20.864c-12.512-3.424-24.32-8.384-35.264-14.752l-17.92 17.888c-12.16 12.16-31.872 12.16-44 0l-11.008-11.008c-12.16-12.128-12.16-31.84 0-44l18.24-18.24c-5.984-10.56-10.56-21.984-13.792-33.952h-20.288c-17.184 0-31.136-13.952-31.136-31.136v-15.552c0-17.184 13.952-31.136 31.136-31.136h20.544c3.328-12.064 8.128-23.52 14.24-34.176l-18.976-18.976c-12.16-12.16-12.16-31.84 0-44.032l11.008-11.008c12.128-12.128 31.84-12.128 44 0l19.104 19.136c10.624-6.016 22.016-10.752 34.048-14.016v-19.936c0-17.184 13.952-31.136 31.136-31.136h15.552c17.184 0 31.136 13.952 31.136 31.136v19.936c12.032 3.264 23.424 7.968 34.016 14.016l19.136-19.136c12.16-12.128 31.84-12.128 44 0l11.008 11.008c12.16 12.192 12.16 31.872 0 44.032l-18.976 18.976c6.080 10.656 10.912 22.112 14.24 34.176h20.544c17.184 0 31.136 13.952 31.136 31.136v15.552c0.128 17.216-13.824 31.136-31.008 31.136zM801.984-89.024c-47.264 0-85.568 38.304-85.568 85.6 0 47.264 38.304 85.568 85.568 85.568s85.568-38.304 85.568-85.568c0-47.296-38.304-85.6-85.568-85.6z" />
<glyph unicode="&#xe920;" glyph-name="apple" d="M301.995-44.8c-20.181 13.483-38.101 29.995-53.077 49.067-16.341 19.755-31.488 40.533-45.397 62.037-32.683 47.787-58.24 100.053-75.947 155.136-21.333 64.085-31.701 125.44-31.701 185.472 0 66.987 14.507 125.44 42.752 174.507 20.907 38.4 52.053 70.528 89.6 93.099 36.267 22.613 78.507 34.987 121.173 35.84 14.933 0 31.147-2.133 48.213-6.4 12.373-3.413 27.307-8.96 45.653-15.787 23.467-8.96 36.267-14.507 40.533-15.787 13.653-5.12 25.173-7.253 34.133-7.253 6.827 0 16.64 2.133 27.52 5.547 6.187 2.133 17.92 5.973 34.56 13.227 16.469 5.973 29.525 11.093 39.893 14.933 15.787 4.693 31.061 8.96 44.8 11.093 16.64 2.56 33.152 3.413 48.981 2.133 30.293-2.133 58.027-8.533 82.773-17.92 43.52-17.493 78.635-44.8 104.832-83.627-11.093-6.827-21.333-14.763-30.933-23.467-20.779-18.347-38.4-40.107-52.48-64.213-18.347-32.853-27.733-69.973-27.477-107.52 0.64-46.208 12.373-86.827 35.84-122.027 16.512-25.6 38.571-47.531 65.451-65.536 13.227-8.96 24.832-15.147 35.84-19.2-5.12-16-10.752-31.573-17.28-46.933-14.805-34.432-32.427-67.413-53.333-98.56-18.432-26.88-32.939-46.933-43.947-60.16-17.152-20.48-33.707-35.84-50.347-46.805-18.347-12.16-39.893-18.603-61.952-18.603-14.933-0.64-29.867 1.28-44.117 5.419-12.373 4.053-24.576 8.619-36.523 13.781-12.501 5.717-25.429 10.581-38.613 14.507-16.213 4.267-32.853 6.315-49.664 6.272-17.067 0-33.707-2.133-49.493-6.187-13.227-3.755-26.027-8.363-38.699-13.867-17.92-7.467-29.653-12.373-36.48-14.507-13.824-4.096-27.989-6.571-42.24-7.467-22.187 0-42.837 6.4-62.848 19.755zM594.432 742.827c-29.013-14.507-56.576-20.651-84.181-18.603-4.267 27.563 0 55.893 11.52 86.912 10.24 26.453 23.893 50.347 42.667 71.68 19.627 22.187 43.093 40.533 69.547 53.76 28.16 14.507 55.040 22.187 80.64 23.467 3.413-29.013 0-57.6-10.667-88.32-9.728-27.307-24.235-52.48-42.667-75.093-18.56-22.187-41.6-40.533-66.859-53.803z" />
<glyph unicode="&#xe921;" glyph-name="stop" d="M512 960c-282.77 0-512-229.23-512-512s229.23-512 512-512 512 229.23 512 512-229.23 512-512 512zM512 32c-229.75 0-416 186.25-416 416s186.25 416 416 416 416-186.25 416-416-186.25-416-416-416zM320 640h384v-384h-384z" />
<glyph unicode="&#xe922;" glyph-name="pause" d="M512 960c-282.77 0-512-229.23-512-512s229.23-512 512-512 512 229.23 512 512-229.23 512-512 512zM512 32c-229.75 0-416 186.25-416 416s186.25 416 416 416 416-186.25 416-416-186.25-416-416-416zM320 640h128v-384h-128zM576 640h128v-384h-128z" />
<glyph unicode="&#xe923;" glyph-name="play" d="M512 960c-282.77 0-512-229.23-512-512s229.23-512 512-512 512 229.23 512 512-229.23 512-512 512zM512 32c-229.75 0-416 186.25-416 416s186.25 416 416 416 416-186.25 416-416-186.25-416-416-416zM384 672l384-224-384-224z" />
<glyph unicode="&#xe924;" glyph-name="windows8, brand, os" d="M0.35 448l-0.35 312.074 384 52.144v-364.218zM448 821.518l511.872 74.482v-448h-511.872zM959.998 384l-0.126-448-511.872 72.016v375.984zM384 16.164l-383.688 52.594-0.020 315.242h383.708z" />
<glyph unicode="&#xe926;" glyph-name="file-text2" d="M917.806 730.924c-22.212 30.292-53.174 65.7-87.178 99.704s-69.412 64.964-99.704 87.178c-51.574 37.82-76.592 42.194-90.924 42.194h-496c-44.112 0-80-35.888-80-80v-864c0-44.112 35.888-80 80-80h736c44.112 0 80 35.888 80 80v624c0 14.332-4.372 39.35-42.194 90.924zM785.374 785.374c30.7-30.7 54.8-58.398 72.58-81.374h-153.954v153.946c22.984-17.78 50.678-41.878 81.374-72.572zM896 16c0-8.672-7.328-16-16-16h-736c-8.672 0-16 7.328-16 16v864c0 8.672 7.328 16 16 16 0 0 495.956 0.002 496 0v-224c0-17.672 14.326-32 32-32h224v-624zM736 128h-448c-17.672 0-32 14.326-32 32s14.328 32 32 32h448c17.674 0 32-14.326 32-32s-14.326-32-32-32zM736 256h-448c-17.672 0-32 14.326-32 32s14.328 32 32 32h448c17.674 0 32-14.326 32-32s-14.326-32-32-32zM736 384h-448c-17.672 0-32 14.326-32 32s14.328 32 32 32h448c17.674 0 32-14.326 32-32s-14.326-32-32-32z" />
<glyph unicode="&#xe956;" glyph-name="display" d="M0 896v-640h1024v640h-1024zM960 320h-896v512h896v-512zM672 192h-320l-32-128-64-64h512l-64 64z" />
<glyph unicode="&#xe992;" glyph-name="equalizer" d="M448 832v16c0 26.4-21.6 48-48 48h-160c-26.4 0-48-21.6-48-48v-16h-192v-128h192v-16c0-26.4 21.6-48 48-48h160c26.4 0 48 21.6 48 48v16h576v128h-576zM256 704v128h128v-128h-128zM832 528c0 26.4-21.6 48-48 48h-160c-26.4 0-48-21.6-48-48v-16h-576v-128h576v-16c0-26.4 21.6-48 48-48h160c26.4 0 48 21.6 48 48v16h192v128h-192v16zM640 384v128h128v-128h-128zM448 208c0 26.4-21.6 48-48 48h-160c-26.4 0-48-21.6-48-48v-16h-192v-128h192v-16c0-26.4 21.6-48 48-48h160c26.4 0 48 21.6 48 48v16h576v128h-576v16zM256 64v128h128v-128h-128z" />
<glyph unicode="&#xe99b;" glyph-name="stats-dots" d="M128 64h896v-128h-1024v1024h128zM288 128c-53.020 0-96 42.98-96 96s42.98 96 96 96c2.828 0 5.622-0.148 8.388-0.386l103.192 171.986c-9.84 15.070-15.58 33.062-15.58 52.402 0 53.020 42.98 96 96 96s96-42.98 96-96c0-19.342-5.74-37.332-15.58-52.402l103.192-171.986c2.766 0.238 5.56 0.386 8.388 0.386 2.136 0 4.248-0.094 6.35-0.23l170.356 298.122c-10.536 15.408-16.706 34.036-16.706 54.11 0 53.020 42.98 96 96 96s96-42.98 96-96c0-53.020-42.98-96-96-96-2.14 0-4.248 0.094-6.35 0.232l-170.356-298.124c10.536-15.406 16.706-34.036 16.706-54.11 0-53.020-42.98-96-96-96s-96 42.98-96 96c0 19.34 5.74 37.332 15.578 52.402l-103.19 171.984c-2.766-0.238-5.56-0.386-8.388-0.386s-5.622 0.146-8.388 0.386l-103.192-171.986c9.84-15.068 15.58-33.060 15.58-52.4 0-53.020-42.98-96-96-96z" />
<glyph unicode="&#xe9bc;" glyph-name="tree" d="M976 192h-16v208c0 61.756-50.242 112-112 112h-272v128h16c26.4 0 48 21.6 48 48v160c0 26.4-21.6 48-48 48h-160c-26.4 0-48-21.6-48-48v-160c0-26.4 21.6-48 48-48h16v-128h-272c-61.756 0-112-50.244-112-112v-208h-16c-26.4 0-48-21.6-48-48v-160c0-26.4 21.6-48 48-48h160c26.4 0 48 21.6 48 48v160c0 26.4-21.6 48-48 48h-16v192h256v-192h-16c-26.4 0-48-21.6-48-48v-160c0-26.4 21.6-48 48-48h160c26.4 0 48 21.6 48 48v160c0 26.4-21.6 48-48 48h-16v192h256v-192h-16c-26.4 0-48-21.6-48-48v-160c0-26.4 21.6-48 48-48h160c26.4 0 48 21.6 48 48v160c0 26.4-21.6 48-48 48zM192 0h-128v128h128v-128zM576 0h-128v128h128v-128zM448 704v128h128v-128h-128zM960 0h-128v128h128v-128z" />
<glyph unicode="&#xea80;" glyph-name="embed2" horiz-adv-x="1280" d="M832 224l96-96 320 320-320 320-96-96 224-224zM448 672l-96 96-320-320 320-320 96 96-224 224zM701.298 809.481l69.468-18.944-191.987-704.026-69.468 18.944 191.987 704.026z" />
<glyph unicode="&#xeac0;" glyph-name="android" d="M896 576c-35.2 0-64-28.8-64-64v-256c0-35.2 28.8-64 64-64s64 28.8 64 64v256c0 35.2-28.8 64-64 64zM128 576c-35.2 0-64-28.8-64-64v-256c0-35.2 28.8-64 64-64s64 28.8 64 64v256c0 35.2-28.802 64-64 64zM224 224c0-53.020 42.98-96 96-96v0-128c0-35.2 28.8-64 64-64s64 28.8 64 64v128h128v-128c0-35.2 28.8-64 64-64s64 28.8 64 64v128c53.020 0 96 42.98 96 96v352h-576v-352zM798.216 639.998c-9.716 87.884-59.004 163.792-129.62 209.646l32.024 64.046c7.904 15.806 1.496 35.028-14.31 42.932s-35.030 1.496-42.932-14.312l-32.142-64.286-8.35 3.316c-28.568 9.502-59.122 14.66-90.886 14.66-31.762 0-62.316-5.158-90.888-14.656l-8.348-3.316-32.142 64.282c-7.904 15.808-27.128 22.212-42.932 14.312-15.808-7.904-22.214-27.126-14.312-42.932l32.022-64.046c-70.616-45.852-119.904-121.762-129.622-209.644v-32h574.222v31.998h-1.784zM416 704c-17.674 0-32 14.328-32 32 0 17.648 14.288 31.958 31.93 31.996 0.032 0 0.062-0.002 0.094-0.002 0.018 0 0.036 0.002 0.052 0.002 17.638-0.042 31.924-14.35 31.924-31.996 0-17.672-14.326-32-32-32zM608 704c-17.674 0-32 14.328-32 32 0 17.646 14.286 31.954 31.924 31.996 0.016 0 0.034-0.002 0.050-0.002 0.032 0 0.064 0.002 0.096 0.002 17.64-0.038 31.93-14.348 31.93-31.996 0-17.672-14.326-32-32-32z" />
<glyph unicode="&#xead9;" glyph-name="chrome" d="M258.278 513.458l-146.532 253.802c93.818 117.464 238.234 192.74 400.254 192.74 187.432 0 351.31-100.736 440.532-251h-417.77c-7.504 0.65-15.092 1-22.762 1-121.874 0-224.578-83.644-253.722-196.542zM695.306 635h293.46c22.74-57.93 35.234-121.004 35.234-187 0-280.826-226.1-508.804-506.186-511.926l209.394 362.678c29.48 42.378 46.792 93.826 46.792 149.248 0 73.17-30.164 139.42-78.694 187zM326 448c0 102.56 83.44 186 186 186s186-83.44 186-186c0-102.56-83.44-186-186-186s-186 83.44-186 186zM582.182 195.558l-146.578-253.878c-246.532 36.884-435.604 249.516-435.604 506.32 0 91.218 23.884 176.846 65.696 251.024l209.030-362.054c41.868-89.112 132.476-150.97 237.274-150.97 24.3 0 47.836 3.34 70.182 9.558z" />
</font>
</defs>
</svg>
